注册 登录  
 加关注
   显示下一条  |  关闭
温馨提示!由于新浪微博认证机制调整,您的新浪微博帐号绑定已过期,请重新绑定!立即重新绑定新浪微博》  |  关闭

Music in the belt

天禄虽宽不育无根之草、佛愿虽广难度不善之人

 
 
 

日志

 
 
关于我

性格开朗、乐于助人、勤奋好学、豁达乐观、永远快乐、思维敏捷、生活简单、工作狂热。

网易考拉推荐

最佳放松-Peter Kater - Heart of the World - Colorado's National Parks (2016) FLAC MP3  

2016-11-14 13:00:25|  分类: 默认分类 |  标签: |举报 |字号 订阅

  下载LOFTER 我的照片书  |
001
Peter Kater - Heart of the World -  (2016)
6

Исполнитель: Peter Kater
Альбом: Heart of the World - Colorado's National Parks
Носитель: WEB альбом
Качество: WEB
Лейбл: Point of Light Records
Дата релиза: 03/04/2016
Жанр: New Age
Формат: FLAC | MP3
Битрейт: 544-768 | 320 kbps
Продолжительность: 01:08:10
Релиз: СЛИМ (Сообщество любителей инструментальной музыки)
Размер: 481,48 Mb

e6

DR13 -0.57 дБ -18.81 дБ 2:55 01-Odyssey
DR13 0.00 дБ -19.29 дБ 2:33 02-After Rainfall
DR11 -3.74 дБ -19.00 дБ 3:09 03-Petroglyphs
DR12 0.00 дБ -16.90 дБ 2:56 04-Ancient Pathways
DR12 0.00 дБ -18.20 дБ 2:13 05-Starlit Canopy
DR11 -4.26 дБ -18.14 дБ 3:34 06-Home of My Heart
DR11 -1.07 дБ -16.72 дБ 2:11 07-Black Canyon
DR12 0.00 дБ -15.87 дБ 2:45 08-Red Rock Spires
DR11 -1.79 дБ -17.04 дБ 1:55 09-Cliff Dwelling
DR12 0.00 дБ -15.24 дБ 3:05 10-Trail Ridge
DR11 -0.59 дБ -15.52 дБ 2:30 11-Frontiers
DR11 -0.76 дБ -15.83 дБ 2:19 12-Nurturing Meadows
DR10 0.00 дБ -13.76 дБ 3:17 13-Sea of Sand
DR12 0.00 дБ -16.22 дБ 2:29 14-Pueblo People
DR13 0.00 дБ -17.43 дБ 3:45 15-Cave Paintings
DR12 0.00 дБ -18.02 дБ 3:28 16-Kaleidoscope Flowers
DR14 0.00 дБ -17.50 дБ 2:10 17-Canyons and Mesas
DR15 -0.64 дБ -19.74 дБ 1:42 18-Desert Cliffs
DR10 0.00 дБ -14.13 дБ 2:39 19-Metamorphic Rock
DR11 0.00 дБ -15.20 дБ 2:24 20-Ancestral Forests
DR11 -0.49 дБ -14.77 дБ 2:33 21-Gunnison River
DR13 0.00 дБ -17.41 дБ 2:38 22-Colorado National Monument
DR10 0.00 дБ -14.54 дБ 2:06 23-Great Sand Dunes
DR13 0.00 дБ -16.29 дБ 4:16 24-Calling Me Home
DR12 0.00 дБ -15.85 дБ 2:39 25-Heart of the World

[hide]

http://v.ctfile.com/info/XQ6330653

[/hide]
北克
883268476918368320


北克温馨提示:
1、由于现在上海搞清网行动,诚通网盘在辖区,故此;2016年4月之前的网盘资源暂时被关闭了。
什么时间可以打开,才诚通网盘负责人没有给出明确时间。现在网盘执行审核方可分享,以前 资源太多不能逐个重新分享,朋友们需要哪个资源把资源地址发给我,北克会尽力满足朋友的需求。
2、北克的所有资源,都是每年续费存放在诚通网盘的,但是北克不能保证永久有效,下载请尽快。
3、目前360马上就要关闭了,现在诚通网盘有专门的审核人员把关审核每一个文件。虽然导致上传麻烦但是能保证资源会存放时间很安全很长久的。现在诚通网盘下载也较之以前没有了弹窗了,下载速度也是飞快(建议使用360极速浏览器最佳)
4、点击下面网址,里面有北克很多资源,任意随您挑选。很多音乐资源(每天都在添加)可供选择免费高速下载,以前失效的链接文件也在这里陆续修复。
http://home.ctfile.com/#item-files   或点击  http://v.ctfile.com/v/wav  ←获取更多资源
  评论这张
 
阅读(5852)| 评论(0)
推荐 转载

历史上的今天

在LOFTER的更多文章

评论

<#--最新日志,群博日志--> <#--推荐日志--> <#--引用记录--> <#--博主推荐--> <#--随机阅读--> <#--首页推荐--> <#--历史上的今天--> <#--被推荐日志--> <#--上一篇,下一篇--> <#-- 热度 --> <#-- 网易新闻广告 --> <#--右边模块结构--> <#--评论模块结构--> <#--引用模块结构--> <#--博主发起的投票-->
 
 
 
 
 
 
 
 
 
 
 
 
 
 

页脚

网易公司版权所有 ©1997-2017